Malay Red.Sparrow.2018.1080p.KORSUB.HDRip
Cia: Crime Investigation ...

Super 8 (2011) 720p BluRay x264 Dual Audio [Hindi DD5.1 - English DD5.1] - Msubs ~ Ranvijay

DOWNLOAD ( MAGNET LINK ) DOWNLOAD DOWNLOAD ANONYMOUS

Posted on May 17, 2018 in Movies » Misc

Size: 2.6 GB , Seeds: 2 , Peers: 2 ( Updated May 17, 2018 - Refresh )

* Download via Magnet Link , * To download files you need a Bittorrent Client , * How to download torrents from Bit Torrent Scene?

Scrape History ( seeds + peers )

Internal Files

Super 8 (2011) 720p BluRay x264 Dual Audio [Hindi DD5.1 - English DD5.1] - Msubs ~ Ranvijay
SMAPLE Super 8   2011) 720p BluRay.mkv (10.1 MB

Super 8   2011) 720p BluRay x264 Dual Audio [Hindi DD5.1 - English DD5.1] - Msubs ~ Ranvijay.mkv (2.6 GB

Hash Code

376c8d3a4803777cc17d4081cc60913e949e6320

Description

SCREENSHOT
SCREENSHOT

Super 8 (2011) 720p BluRay x264 Dual Audio [Hindi DD5.1 - English DD5.1] - Msubs ~ Ranvijay

Buy RDP Online
SCREENSHOT

Format                                   : Matroska

Format version                           : Version 4 / Version 2

File size                                : 2.60 GiB

Duration                                 : 1 h 51 min

Overall bit rate mode                    : Variable

Overall bit rate                         : 3 327 kb/s

Movie name                               : Super 8 (2011) 720p BluRay x264 Dual Audio [Hindi DD5.1 - English DD5.1] - Msubs ~ Ranvijay


Video

ID                                       : 1

Format                                   : AVC

Duration                                 : 1 h 51 min

Bit rate mode                            : Variable

Bit rate                                 : 2 403 kb/s

Maximum bit rate                         : 14.0 Mb/s

Width                                    : 1 280 pixels

Height                                   : 534 pixels

Display aspect ratio                     : 2.40:1

Frame rate mode                          : Constant

Frame rate                               : 23.976 (24000/1001) FPS

Color space                              : YUV

Chroma subsampling                       : 4:2:0

Bit depth                                : 8 bits

Scan type                                : Progressive

Bits/(Pixel*Frame)                       : 0.147

Stream size                              : 1.88 GiB (72%)

Title                                    : ~Ranvijay~

Language                                 : English

Default                                  : Yes

Forced                                   : No


Audio #1

ID                                       : 2

Format                                   : AC-3

Format/Info                              : Audio Coding 3

Codec ID                                 : A_AC3

Duration                                 : 1 h 51 min

Bit rate mode                            : Constant

Bit rate                                 : 448 kb/s

Channel(s)                               : 6 channels

Channel positions                        : Front: L C R, Side: L R, LFE

Sampling rate                            : 48.0 kHz

Frame rate                               : 31.250 FPS (1536 SPF)

Bit depth                                : 16 bits

Compression mode                         : Lossy

Delay relative to video                  : 1 s 800 ms

Stream size                              : 358 MiB (13%)

Title                                    : ~Ranvijay~

Language                                 : Hindi

Service kind                             : Complete Main

Default                                  : Yes

Forced                                   : No


Audio #2

ID                                       : 3

Format                                   : AC-3

Format/Info                              : Audio Coding 3

Codec ID                                 : A_AC3

Duration                                 : 1 h 51 min

Bit rate mode                            : Constant

Bit rate                                 : 448 kb/s

Channel(s)                               : 6 channels

Channel positions                        : Front: L C R, Side: L R, LFE

Sampling rate                            : 48.0 kHz

Frame rate                               : 31.250 FPS (1536 SPF)

Bit depth                                : 16 bits

Compression mode                         : Lossy

Stream size                              : 358 MiB (13%)

Title                                    : ~Ranvijay~

Language                                 : English

Service kind                             : Complete Main

Default                                  : No

Forced                                   : No


Text #1

ID                                       : 4

Format                                   : PGS

Muxing mode                              : zlib

Codec ID                                 : S_HDMV/PGS

Codec ID/Info                            : Picture based subtitle format used on BDs/HD-DVDs

Duration                                 : 1 h 50 min

Bit rate                                 : 30.4 kb/s

Count of elements                        : 2960

Stream size                              : 24.1 MiB (1%)

Title                                    : ~Ranvijay~

Language                                 : Hindi

Default                                  : Yes

Forced                                   : No


Text #2

ID                                       : 5

Format                                   : PGS

Muxing mode                              : zlib

Codec ID                                 : S_HDMV/PGS

Codec ID/Info                            : Picture based subtitle format used on BDs/HD-DVDs

Duration                                 : 1 h 51 min

Bit rate                                 : 62.3 kb/s

Count of elements                        : 3650

Stream size                              : 49.8 MiB (2%)

Title                                    : ~Ranvijay~

Language                                 : English

Default                                  : No

Forced                                   : No


Text #3

ID                                       : 6

Format                                   : UTF-8

Codec ID                                 : S_TEXT/UTF8

Codec ID/Info                            : UTF-8 Plain Text

Duration                                 : 1 h 48 min

Bit rate                                 : 65 b/s

Count of elements                        : 1461

Stream size                              : 51.8 KiB (0%)

Title                                    : ~Ranvijay~

Language                                 : English

Default                                  : No

Forced                                   : No


Menu

00:00:00.000                             : :Chapter 1

00:07:01.504                             : :Chapter 2

00:11:33.275                             : :Chapter 3

00:19:25.164                             : :Chapter 4

00:26:43.518                             : :Chapter 5

00:33:36.514                             : :Chapter 6

00:40:30.511                             : :Chapter 7

00:45:42.156                             : :Chapter 8

00:51:57.113                             : :Chapter 9

00:56:59.958                             : :Chapter 10

01:02:24.365                             : :Chapter 11

01:08:12.505                             : :Chapter 12

01:13:30.906                             : :Chapter 13

01:18:33.875                             : :Chapter 14

01:25:31.334                             : :Chapter 15

01:30:25.378                             : :Chapter 16

01:38:20.352                             : :Chapter 17

01:43:37.836                             : :Chapter 18

01:51:48.493                             : :Chapter 19

SCREENSHOT
SCREENSHOT
SCREENSHOT
SCREENSHOT
SCREENSHOT
SCREENSHOT
SCREENSHOT
SCREENSHOT

SCREENSHOT

Torrent location

http://www.1337x.to/torrent/3000456/Super-8-2011-720p-BluRay-x264-Dual-Audio-Hindi-DD5-1-English-DD5-1-Msubs-Ranvijay/

Trackers

Refresh Leechers : Updated May 17, 2018

1. udp://9.rarbg.com:2710/announce

2. udp://tracker.opentrackr.org:1337/announce

3. udp://tracker.pirateparty.gr:6969/announce

4. udp://tracker.leechers-paradise.org:6969/announce

5. udp://tracker.coppersurfer.tk:6969/announce

6. udp://tracker.zer0day.to:1337/announce

Comments

You must log in to add a comment.

Embed Code

Sharing Widget

Related torrents

FILENAME SIZE SEEDS PEERS ADDED UPD
[i] Necessary.Evil.Super-Villains.Of.DC.Comics.2013.720p.BluRay.x264-PublicHD 3.29 GB 2 1 4 years 10 months
[i] Lego DC Comics Super Heroes The Flash 720p BluRay x264-NeZu
posted by NeZu2k16 in Movies - Animation
704.96 MB 2 2 1 month 2 weeks
[i] Homem.De.Ferro.Hulk.Super.Herois.Unidos.2013.720p.BluRay.x264.DU 4.36 GB 1 0 3 years 10 months
[i] Super.8.2011.720p.10bit.BluRay.x265.HEVC-MZABI 788.3 MB 1 1 2 years 8 months
[i] LEGO.DCics.Super.Heroes.Justice.League.Gotham.City.Breakout.2016.720p.BluRay.x264-ROVERS[VR56] 2.29 GB 1 0 1 year 5 months
[i] Super 8 2011 720p Esub BluRay Dual Audio English Hindi GOPISAHI
posted by gopisahi in Movies - Horror
705.65 MB 1 2 6 months 2 weeks
[i] Super Dark Times 2017 720p BluRay x264 AC3 5 1 ESub
posted by moviefreak in Movies - Thriller
1020.17 MB 1 0 6 months 2 weeks
[i] Super 8 (2011) BluRay 720p 600MB Ganool 600.3 MB 0 1 6 years 1 year
[i] Super 8 2011 BluRay 720p x264-DTS 5.54 GB 0 0 6 years 1 year
[i] Super.8.2011.SweSub.BluRay.720p.x264.DTS-HDChina 5.54 GB 0 0 6 years 1 year

Top Movies ( auto generated report )

FILENAME SIZE SEEDS PEERS ADDED UPD
[i] Pacific Rim Uprising (2018) [WEBRip] [1080p] [YTS AM] 1.77 GB 10718 5076 3 days 2 days
[i] Pacific Rim Uprising (2018) [WEBRip] [720p] [YTS AM] 943.67 MB 8884 5108 3 days 2 days
[i] Dark Crimes (2016) [WEBRip] [720p] [YTS AM] 793.49 MB 2029 1190 2 days 1 day
[i] Girl Lost (2018) [WEBRip] [720p] [YTS AM] 806.4 MB 1869 1102 1 day 14 hours
[i] Dark Crimes (2016) [WEBRip] [1080p] [YTS AM] 1.49 GB 1647 730 2 days 1 day
[i] Deadpool 2 (2018) 720p TS 800MB Ganool 800.73 MB 1542 569 4 days 1 day
[i] I Kill Giants (2017) [BluRay] [1080p] [YTS AM] 1.71 GB 1385 457 3 days 2 days
[i] I Kill Giants (2017) [BluRay] [720p] [YTS AM] 919.41 MB 1379 567 3 days 2 days
[i] Girl Lost (2018) [WEBRip] [1080p] [YTS AM] 1.52 GB 1322 591 1 day 14 hours
[i] Deadpool 2 2018 HDTS XViD AC3-ETRG 1.3 GB 1049 957 3 days 2 days