18-05-2018 – Mouna Raagam Vijay Tv Serial
torrent Harold PlayStation3 download

Rick and Morty Season 2[PROPER][BDRip 1080p AC3][AtaraxiaPrime]

DOWNLOAD ( MAGNET LINK ) DOWNLOAD DOWNLOAD ANONYMOUS

Posted on May 17, 2018 in Series » Misc

Size: 9.6 GB , Seeds: 1 , Peers: 18 ( Updated May 17, 2018 - Refresh )

* Download via Magnet Link , * To download files you need a Bittorrent Client , * How to download torrents from Bit Torrent Scene?

Scrape History ( seeds + peers )

Internal Files

Rick and Morty Season 2[PROPER][BDRip 1080p AC3][AtaraxiaPrime]
E02.Mortynight Run.mkv   1.0 GB

E01.A Rickle in Time.mkv   1.0 GB

E03.Auto Erotic Assimilation.mkv   961.8 MB

E04.Total Rickall.mkv   921.2 MB

E05.Get Schwifty.mkv   989.8 MB

E06.The Ricks Must Be Crazy.mkv   955.8 MB

E07.Big Trouble in Little Sanchez.mkv   1.0 GB

E08.Interdimensional Cable 2 Tempting Fate.mkv   989.1 MB

E09.Look Who's Purging Now.mkv   928.1 MB

E10.The Wedding Squanchers.mkv   975.4 MB

Readme.txt   5.1 KB

Hash Code

22cb14f2d694be20ca7b7f855a8f8645c0714d9d

Description

RICK AND MORTY SEASON TWO (BLU RAY)
----------------------------------------


A sociopathic scientist drags his unintelligent grandson on insanely dangerous adventures across the universe.


Increased the audio bitrate from 448kb/s to 640kb/s and increased overall bitrate from ~3mb/s to ~6mb/s.


EPISODE LIST
----------------------------------------


SEASON 2

E01 A Rickle in Time 2015-07-26

E02 Mortynight Run 2015-08-02

E03 Auto Erotic Assimilation 2015-08-09

E04 Total Rickall 2015-08-16

E05 Get Schwifty 2015-08-23

E06 The Ricks Must Be Crazy 2015-08-30

E07 Big Trouble in Little Sanchez 2015-09-13

E08 Interdimensional Cable 2: Tempting Fate 2015-09-20

E09 Look Who's Purging Now 2015-09-27

E10 The Wedding Squanchers 2015-10-04


MEDIA INFO
----------------------------------------


General

Complete name : Season 2\E08.Interdimensional Cable 2 Tempting Fate.mkv

Format : Matroska

Format version : Version 4 / Version 2

File size : 989 MiB

Duration : 22 min 32 s

Overall bit rate : 6 136 kb/s

Encoded date : UTC 2017-08-22T22:30:41Z

Writing application : HandBrake 1.0.7 2017040900

Writing library : Lavf57.7.2


Video

ID : 1

Format : AVC

Format/Info : Advanced Video Codec

Format profile : [email protected]
Format settings, CABAC : Yes

Format settings, RefFrames : 16 frames

Codec ID : V_MPEG4/ISO/AVC

Duration : 22 min 32 s

Bit rate : 5 374 kb/s

Width : 1 920 pixels

Height : 1 080 pixels

Display aspect ratio : 16:9

Frame rate mode : Constant

Frame rate : 23.976 (24000/1001) FPS

Color space : YUV

Chroma subsampling : 4:2:0

Bit depth : 8 bits

Scan type : Progressive

Bits/(Pixel*Frame) : 0.108

Stream size : 866 MiB (88%)

Writing library : x264 core 148 r2708 86b7198

Encoding settings : cabac=1 / ref=16 / deblock=1:1:1 / analyse=0x3:0x133 / me=umh / subme=10 / psy=1 / psy_rd=0.40:0.00 / mixed_ref=1 / me_range=24 / chroma_me=1 / trellis=2 / 8x8dct=1 / cqm=0 / deadzone=21,11 / fast_pskip=1 / chroma_qp_offset=-2 / threads=12 / lookahead_threads=3 / sliced_threads=0 / nr=0 / decimate=1 / interlaced=0 / bluray_compat=0 / constrained_intra=0 / bframes=10 / b_pyramid=2 / b_adapt=2 / b_bias=0 / direct=3 / weightb=1 / open_gop=0 / weightp=2 / keyint=240 / keyint_min=24 / scenecut=40 / intra_refresh=0 / rc_lookahead=60 / rc=crf / mbtree=1 / crf=12.0 / qcomp=0.60 / qpmin=0 / qpmax=69 / qpstep=4 / vbv_maxrate=300000 / vbv_bufsize=300000 / crf_max=0.0 / nal_hrd=none / filler=0 / ip_ratio=1.40 / aq=1:0.60

Default : Yes

Forced : No

Color range : Limited

Color primaries : BT.709

Transfer characteristics : BT.709

Matrix coefficients : BT.709


Audio

ID : 2

Format : AC-3

Format/Info : Audio Coding 3

Format settings, Endianness : Big

Codec ID : A_AC3

Duration : 22 min 32 s

Bit rate mode : Constant

Bit rate : 640 kb/s

Channel(s) : 6 channels

Channel positions : Front: L C R, Side: L R, LFE

Sampling rate : 48.0 kHz

Frame rate : 31.250 FPS (1536 SPF)

Bit depth : 16 bits

Compression mode : Lossy

Delay relative to video : -5 ms

Stream size : 103 MiB (10%)

Title : Surround

Language : English

Service kind : Complete Main

Default : Yes

Forced : No


Text

ID : 3

Format : PGS

Codec ID : S_HDMV/PGS

Codec ID/Info : Picture based subtitle format used on BDs/HD-DVDs

Language : English

Default : No

Forced : No


SCREENSHOTS
----------------------------------------


SCREENSHOT
SCREENSHOT
SCREENSHOT
SCREENSHOT
SCREENSHOT

----------------------------------------


AtaraxiaPrime

Torrent location

http://www.1337x.to/torrent/2999774/Rick-and-Morty-Season-2-PROPER-BDRip-1080p-AC3-AtaraxiaPrime/

Trackers

Refresh Leechers : Updated May 17, 2018

1. udp://9.rarbg.com:2710/announce

2. udp://tracker.opentrackr.org:1337/announce

3. udp://tracker.pirateparty.gr:6969/announce

4. udp://tracker.leechers-paradise.org:6969/announce

5. udp://tracker.coppersurfer.tk:6969/announce

6. udp://tracker.zer0day.to:1337/announce

Comments

You must log in to add a comment.

Embed Code

Sharing Widget

Related torrents

FILENAME SIZE SEEDS PEERS ADDED UPD
[i] Rick and Morty Season 1 [WEBRIP] [1080p] [HEVC] 2.98 GB 503 85 2 years 1 month
[i] Rick and Morty Season 1 [UNCENSORED] [BDRip] [1080p] [HEVC]
posted by pseudoseed in Series - Misc
3.21 GB 388 110 2 years 2 months
[i] Rick and Morty Season 1 Complete (1920x1080) [Phr0stY] 8.96 GB 106 25 4 years 1 year
[i] Rick and Morty Season 1 (1280x720) [Phr0stY] 5.79 GB 55 27 2 years 8 months
[i] Rick and Morty Season 1 S01 1080p BluRay DD5 1 x264-NTb [RiCK]
posted by _rick_ in Series - Misc
7.64 GB 31 9 2 years 8 months
[i] Rick and Morty (Season 01) [UNCENSORED] [1080p] [BD] [x265] [pseudo] (v2) 5.63 GB 24 12 1 year 8 months
[i] Rick and Morty (Season 01) [UNCENSORED] [720p] [BD] [x265] [pseudo] 4.18 GB 17 8 1 year 8 months
[i] Rick and Morty Season 1 (fiveofseven zombiRG) 1.55 GB 14 5 2 years 11 months
[i] Rick And Morty Season 1 S01 720p BRRip AC3 5 1 x264 - sHDb
posted by shadab15 in Series - Misc
2.73 GB 11 6 2 years 8 months
[i] [AliQ] Rick and Morty Season 1 [1080p BD x264 CH6] 2.99 GB 10 3 1 year 4 months

Top Series ( auto generated report )

FILENAME SIZE SEEDS PEERS ADDED UPD
[i] Marvels.Agents.of.S.H.I.E.L.D.S05E22.720p.HDTV.x264-KILLERS[rarbg] 756.4 MB 1545 342 1 day 1 day
[i] Survivor.S36E13.HDTV.x264-F43[ettv] 392.91 MB 1210 162 3 days 2 days
[i] Marvels.Agents.of.S.H.I.E.L.D.S05E22.HDTV.x264-KILLERS[ettv] 215.75 MB 1162 289 1 day 20 hours
[i] Marvels.Agents.of.S.H.I.E.L.D.S05E22.HDTV.x264-KILLERS[rarbg] 215.8 MB 1146 218 1 day 1 day
[i] The.Blacklist.S05E22.WEBRip.x264-PBS[ettv] 268.96 MB 948 137 3 days 2 days
[i] The.Expanse.S03E06.HDTV.x264-KILLERS[ettv] 235.2 MB 487 61 3 days 2 days
[i] Greys.Anatomy.S14E24.HDTV.x264-KILLERS[ettv] 373.7 MB 484 47 2 days 1 day
[i] NBA [Boston Celtics vs Cleveland Cavaliers] .15.05.18. [WWRG] 4.5 GB 441 158 4 days 4 days
[i] MasterChef.Australia.S10E08.HDTV.x264-SPC[ettv] 385.41 MB 441 38 4 days 3 days
[i] Riverdale.US.S02E22.PROPER.WEBRip.x264-PBS[ettv] 187.08 MB 395 68 3 days 2 days