1x01 Violet Evergarden
Seven Seas
Your IP Address is . Location is Your ISP and Government can track your torrent activity! Hide your IP with a VPN!

Red Sparrow 2018 1080p HC HDRip AAC 2 0 x264 [MW]

DOWNLOAD TORRENT DOWNLOAD PROTECT YOUR PRIVACY

Posted by moviefreak •1404 on April 16, 2018 in Movies » Mystery , verified torrent

Size: 1.99 GB , Seeds: 54 , Peers: 36 ( Updated April 17, 2018 - Refresh )

* Download via Magnet Link , * To download files you need a Bittorrent Client , * How to download torrents from Bit Torrent Scene?

Scrape History ( seeds + peers )

Internal Files

Red Sparrow 2018 1080p HC HDRip AAC 2.0 x264 [MW]
Red Sparrow 2018 1080p HC HDRip AAC 2.0 x264 [MW].mkv   1.99 GB

Hash Code

200cada9bf9b9d53c8e61daf0d237741a94889e6

Description


SCREENSHOT


General
Format : Matroska
Format version : Version 4 / Version 2
File size : 1.99 GiB
Duration : 2 h 15 min
Overall bit rate : 2 099 kb/s

Video
ID : 1
Format : AVC
Format/Info : Advanced Video Codec
Format profile : [email protected]
Format settings : CABAC / 4 Ref Frames
Format settings, CABAC : Yes
Format settings, RefFrames : 4 frames
Codec ID : V_MPEG4/ISO/AVC
Duration : 2 h 15 min
Bit rate : 2 000 kb/s
Width : 1 904 pixels
Height : 800 pixels
Display aspect ratio : 2.40:1
Frame rate mode : Constant
Frame rate : 29.970 (30000/1001) FPS
Color space : YUV
Chroma subsampling : 4:2:0
Bit depth : 8 bits
Scan type : Progressive
Bits/(Pixel*Frame) : 0.044
Stream size : 1.87 GiB (94%)
Writing library : x264 core 155 r2893 b00bcaf
Default : Yes
Forced : No

Audio
ID : 2
Format : AAC
Format/Info : Advanced Audio Codec
Format profile : LC
Codec ID : A_AAC-2
Duration : 2 h 15 min
Bit rate : 128 kb/s
Channel(s) : 2 channels
Channel positions : Front: L R
Sampling rate : 48.0 kHz
Frame rate : 46.875 FPS (1024 SPF)
Compression mode : Lossy
Stream size : 124 MiB (6%)
Language : English
Default : Yes
Forced : No




http://pichub.site/image/Jspq5
http://pichub.site/image/Jsr88
http://pichub.site/image/JsLaX
http://pichub.site/image/Jsvug
http://pichub.site/image/JsUEZ

Trackers

Refresh Leechers : Updated April 17, 2018

1. udp://tracker.pirateparty.gr:6969/announce

2. udp://tracker.opentrackr.org:1337/announce

3. udp://tracker.opentrackr.org:80/announce

4. udp://tracker.vanitycore.co:6969/announce

5. udp://public.popcorn-tracker.org:6969/announce

6. udp://9.rarbg.to:2720/announce

7. udp://9.rarbg.me:2740/announce

8. udp://9.rarbg.com:2790/announce

9. udp://inferno.demonoid.pw:3391/announce

10. udp://tracker.internetwarriors.net:1337/announce

11. udp://ipv4.tracker.harry.lu:80/announce

12. udp://p4p.arenabg.ch:1337/announce

13. http://tracker.vanitycore.co:6969/announce

14. http://public.popcorn-tracker.org:6969/announce

15. udp://tracker.zer0day.to:1337/announce

16. udp://tracker.leechers-paradise.org:6969/announce

17. udp://coppersurfer.tk:6969/announce

Comments

You must log in to add a comment.

Embed Code

Sharing Widget

Related torrents

FILENAME SIZE SEEDS PEERS ADDED UPD
[i] 18+ Red Sparrow 2018 1080p HC HDRip X264 AC3 LLG
posted by LifeLongg in Movies - Drama
2.02 GB 90 101 1 day 15 hours

Top Movies ( auto generated report )

FILENAME SIZE SEEDS PEERS ADDED UPD
[i] downloadhub in Sonu Ke Titu Ki Sweety (2018) Hindi 720p HDRip x264 AAC ESubs - Downloadhub 1.06 GB 883 490 1 day 19 hours
[i] Stephanie (2017) [WEBRip] [720p] [YTS AM] 738.22 MB 748 282 1 day 11 hours
[i] Backstabbing for Beginners (2018) [BluRay] [720p] [YTS AM] 928.47 MB 741 391 1 day 11 hours
[i] The Bugs Bunny Road-Runner Movie (1979) [WEBRip] [1080p] [YTS AM] 1.54 GB 627 299 12 hours 10 hours
[i] Backstabbing for Beginners (2018) [BluRay] [1080p] [YTS AM] 1.74 GB 618 225 1 day 11 hours
[i] The Bugs Bunny Road-Runner Movie (1979) [WEBRip] [720p] [YTS AM] 808.41 MB 599 249 12 hours 10 hours
[i] Stephanie (2017) [WEBRip] [1080p] [YTS AM] 1.38 GB 497 186 1 day 11 hours
[i] Jago A Life Underwater (2015) [WEBRip] [1080p] [YTS AM] 801.21 MB 497 184 12 hours 10 hours
[i] Jago A Life Underwater (2015) [WEBRip] [720p] [YTS AM] 420.61 MB 333 133 12 hours 10 hours
[i] Bleeding Steel.2017.HDRip.XviD.AC3-EVO 1.38 GB 296 121 1 day 14 hours